Aclaración...

Este espacio se reserva el derecho de publicar sobre cualquier tema que parezca interesante a su staff, no solamente referidos a la cuestión musical sino también a lo político y social.
Si no estás de acuerdo con lo expresado podrás dejar tu comentario siempre que no sea ofensivo, discriminador o violento...

Y no te confundas, no nos interesa la piratería, lo nuestro es simplemente desobediencia civil y resistencia cultural a favor del libre acceso al conocimiento (nuestra música es, entre otras tantas cosas, conocimiento).

jueves, 10 de marzo de 2016

Invisible - Durazno Sangrando (1975)


Facundo nos sigue trayendo más Invisible, y además la promesa de nuevas cosas del Flaco que no tenemos ¿hay algo del Flaco que aún no tenemos?... seguí atento a las novedades del blog cabezón, donde nunca falta alguna que otra sorpresita y sorpresota. Es una edición brasileña de 1992, en formato HDCD masterizado sobre las cintas originales en 20 bits. Solo salieron dos, este y El Jardín de los presentes.

Artista: Invisible
Álbum: Durazno Sangrando
Año: 1975
Género: Rock fusión
Duración: 36.20
Nacionalidad: Argentina

Lista de Temas:
1. Encadenado al ánima
2. Durazno Sangrando
3. Pleamar de águilas
4. En una lejana playa del animus
5. Dios de adolescencia


Alineación:
- Carlos Alberto Machi Rufino / bajo
- Héctor "Pomo" Lorenzo / batería
- Luis Alberto Spinetta / guitarra y voz

¿Les tengo que decir, comentar, aclarar, o lo que sea, de este clásico del rock argentino? Si, que lo resubió el capo de Sandy, otra vez...



¿Tendría sentido, a esta altura, presentar a Luis A. Spinetta, hablar de su talento, mencionar su participación dentro del rock nacional, comentar su perfil como compositor ó remarcar que es un virtuoso de la guitarra? Seguro que no. Pero, aunque ya se haya expresado muchas otras veces, sí conviene reiterar que hablar de Spinetta implica referirse a un mito para el rock argentino.
"Durazno Sangrando" ni siquiera es el epitafio de una época tan fructífera como la de Invisible; es tan sólo su segundo LP, y ya muestra madurez desde el momento que se trata de un álbum conceptual, con una riqueza literaria inigualable.
A través de cinco temas, Spinetta, Pomo y Machi brindan cerca de 45 minutos expectantes de audición, que recogen la elogiable labor de tres excelentes músicos. Y aunque los temas llevan la rúbrica de Spinetta, tienen el sello final de Invisible, con todas sus letras.


27 comentarios:

  1. Este comentario ha sido eliminado por el autor.

    ResponderEliminar
  2. Upgradeando mi copia.
    Merci beaucoup! (Y)

    ResponderEliminar
  3. Este comentario ha sido eliminado por un administrador del blog.

    ResponderEliminar
  4. Este comentario ha sido eliminado por el autor.

    ResponderEliminar
  5. Siento decirte que esto no es FLAC "real"...

    ResponderEliminar
    Respuestas
    1. Estás seguro? es muy raro si lo ha publicado Sandy. Bueno, después subo una versión en lossless "real"

      Eliminar
  6. lo podrian volver a subir por favor???? saludos desde mexico!

    ResponderEliminar
    Respuestas
    1. Quedsa en el listado de discos por resubir

      Eliminar
  7. buuu esque he tratando de buscarlo por fuera pero nada :|

    ResponderEliminar
  8. Amigos, yo tengo este mismo; denme unos días y lo subo a mega, ¿o prefieren otro servidor?

    ResponderEliminar
  9. El Flac que yo tengo, creo que lo bajé de acá mismo, es un ripeo de CD (a 16 bits) y suena fenomenal en el Hi-Fi de mi casa. Saludos desde Santiago de Chile!!

    ResponderEliminar
    Respuestas
    1. Rodrigo, mil gracias! si lo subís a Mega estaría perfecto! Gracias desde ahora!

      Eliminar
  10. http://pastebin.com/nB9aC5QK

    si te pide clave, es: !tJCkxsA3Qv0eOmCTi0suuJvpytgOttv0GBmfIDfTym0

    ResponderEliminar
  11. Ojo: es flac "real". Chequeado en mi sistema Rega-ATC-Maverick. Saludos afectuosos!!

    ResponderEliminar
  12. Rodrigo, disuculpa, escanee el audio y pareciera que no es el original. Lo copiaste de un disco tuyo???

    ResponderEliminar
  13. Hola, tengo dos HDCD de Invisible, este y El Jardín de los Presentes, masterizados en 20bits. ¿sirve? si les sirve lo subo. Saludos!

    ResponderEliminar
    Respuestas
    1. Claro Facundo que sirve!!! SI SI!

      Eliminar
    2. Acá dejo Durazno Sangrando. Es una edición brasileña de 1992, en formato HDCD masterizado sobre las cintas originales en 20 bits. Solo salieron dos, este y El Jardín de los presentes (dejo El Jardín en su correspondiente post, que, por cierto, no está subido)

      Incluye FLAC+log+scans: http://pastebin.com/FpgQajZQ

      Eliminar
    3. Por cierto, me gustaría contribuir con más discos de Spinetta, estuve viendo y falta alguna que otra cosa, tengo algunas cosas más además de los CDs originales (simples, EPs), la posibilidad de ripear con EAC y subir sin problema. Díganme si necesitan algo.
      Saludos!

      Eliminar
    4. Facundo: necesitamos todo lo que tengas del Flaco que aún no tengamos publicado, por favor escribime a mi email y arreglamos cómo hacer:
      mo.381.u5.8 arroba gmail.com

      Eliminar
    5. Hola a todos. No es que sea aguafiestas pero tengo entendido que el HDCD es una cunatificación en 20 bits pero veo que tu ripeo está a 16 bits. Qué ripeador haz usado? Saludos

      Eliminar
    6. Realizé la misma comparacion que hice con el Jardín:

      Edición Columbia 2-493867

      foobar2000 1.3.9 / Dynamic Range Meter 1.1.1
      log date: 2016-03-14 13:34:08

      --------------------------------------------------------------------------------
      Analyzed: Invisible / Durazno Sangrando
      --------------------------------------------------------------------------------

      DR Peak RMS Duration Track
      --------------------------------------------------------------------------------
      DR14 -0.07 dB -16.99 dB 15:35 01-Encadenado al anima
      DR14 -1.48 dB -18.61 dB 3:41 02-Durazno sangrando
      DR13 0.00 dB -16.27 dB 4:23 03-Pleamar de aguilas
      DR13 -0.50 dB -16.56 dB 9:57 04-En una lejana playa del animus
      DR14 0.00 dB -16.39 dB 2:45 05-Dios de adolecencia
      --------------------------------------------------------------------------------

      Number of tracks: 5
      Official DR value: DR14

      Samplerate: 44100 Hz
      Channels: 2
      Bits per sample: 16
      Bitrate: 749 kbps
      Codec: FLAC
      ================================================================================


      Edición HDCD:

      foobar2000 1.3.9 / Dynamic Range Meter 1.1.1
      log date: 2016-03-14 13:34:48

      --------------------------------------------------------------------------------
      Analyzed: Invisible / Durazno Sangrando
      --------------------------------------------------------------------------------

      DR Peak RMS Duration Track
      --------------------------------------------------------------------------------
      DR14 -0.07 dB -16.99 dB 15:35 01-Encadenado al anima
      DR16 0.00 dB -17.95 dB 3:41 02-Durazno sangrando
      DR13 0.00 dB -16.27 dB 4:23 03-Pleamar de aguilas
      DR13 -0.50 dB -16.56 dB 9:57 04-En una lejana playa del animus
      DR14 0.00 dB -16.39 dB 2:45 05-Dios de la adolescencia
      --------------------------------------------------------------------------------

      Number of tracks: 5
      Official DR value: DR14

      Samplerate: 44100 Hz
      Channels: 2
      Bits per sample: 16
      Bitrate: 771 kbps
      Codec: FLAC
      ================================================================================


      El bitrate nuevamente es mas alto en la versión HDCD. Pero esta vez, encontre una diferencia en los masters, en el track 2, Durazno Sangrando. La versión de Columbia 2-493867 marca un DR de 14, cuando la versión HDCD marca 16, un rango dinámico mas amplio. Habrá que escuchar las dos versiones y decidir cual suena mejor. En cuanto a las canciones restantes no existe diferencia alguna en los másters.

      Desde ya, mil gracias Facundo por compartir esto y a todo el blog Cabeza de Moog, por tanta música magistral.

      Saludos, espero que haya servido.

      Eliminar
    7. Fe de Erratas: la version de Durazno Sangrando del HDCD se escucha mal, como si estuviera rayado el disco/mal ripeado. Por eso el DR 16. Facundo podrías re-ripear esa canción?

      Eliminar
    8. Bueno yo sólo comparé el primer track y sí, la única diferencia que noté fue que hay un silencio en el archivo de la versión brasileña. Como no comparé la segunda pista no noté esa diferencia en el rango dinámico que mencionas. Luego lo descargo de nuevo para compararlo.

      Eliminar
    9. Bueno, dado tanto intercambio hoy lo ripeo de nuevo y lo subo, estoy seguro de haberme asegurado de haberlo hecho en 20bits como corresponde pero, como decía Tusam, puede fallar.

      Eliminar
    10. ¡Sí, estaría muy bien! También acabo de darme cuenta de que, cuando comparé ambas versiones, ¡olvidé decodificar el ripeo que hiciste a HDCD! :(

      Eliminar
  14. Si no me equivoco, ambas versiones son iguales. De hecho la que dice remasteizada en 20 bits, y el cd está hecho en brasil, no es mas que la primera edición puesto en un packaging que dice "20 bits". Y con respecto a la diferencia de rango dinamico (creo) que tiene que ver con una falla del rippeado, ¿no?

    ResponderEliminar




Lo más visitado...

Lo más visitado en el mes

Lo más visitado esta semana